Jump to content

Добро пожаловать на Kavkazportal.com
Пройдите регистрацию,что бы получить полный доступ к всем функция на форуме. После регистрации и входа на форум,вы сможите создавать темы, отвечать на сообщения в существующих разделах, изменять репутацию другим пользователям, получать личные сообщения,размещать новые релизы и темы, управлять вашим профилем и многое другое. Это сообщение будет удалено, как только вы войдете в систему
Войти Регистрация
Новинки Форума
Фотография

Zeynəb Xanlarova - Seçmə mahnılar


  • Вы не можете создать новую тему
  • Авторизуйтесь для ответа в теме
В этой теме нет ответов

#1 RAFAEL

RAFAEL

    Администратор

  • Главные Администраторы

  • 23 241 сообщений
  • Пол:Мужчина
  • Город:Махачкала.Израиль.
  • Интересы:www.kavkazportal.com


Награды

           

Отправлено 25 Апрель 2012 - 23:35

Изображение

İfaçı / Исполнитель: Zeynəb Xanlarova
Albom / Альбом: Seçmə mahnılar
Buraxılış ili / Год выхода: ?
Fayl böyüklüyü / Размер файла: 2.78 GB
Uzunluğu / Продолжительность:
Audio / Video: 720 x 576

General
Complete name : Zeyneb.Xanlarova-Sechme.mahnilar_by.Bakili
Format : MPEG-PS
Overall bit rate : 4 207 Kbps
Video #224
ID : 224 (0xE0)
Format : MPEG Video
Format version : Version 2
Format profile : Main@Main
Format settings, BVOP : Yes
Format settings, Matrix : Default
Duration : 33mn 45s
Bit rate mode : Variable
Bit rate : 3 867 Kbps
Nominal bit rate : 9 400 Kbps
Width : 720 pixels
Height : 576 pixels
Display aspect ratio : 4:3
Frame rate : 25.000 fps
Standard : PAL
Color space : YUV
Chroma subsampling : 4:2:0
Bit depth : 8 bits
Scan type : Interlaced
Scan order : Top Field First
Bits/(Pixel*Frame) : 0.373
Stream size : 934 MiB (92%)
Audio #128
ID : 128 (0x80)
Format : AC-3
Format/Info : Audio Coding 3
Mode extension : CM (complete main)
Duration : 33mn 45s
Bit rate mode : Constant
Bit rate : 256 Kbps
Channel(s) : 2 channels
Channel positions : Front: L R
Sampling rate : 48.0 KHz
Bit depth : 16 bits
Video delay : -80ms
Stream size : 61.8 MiB (6%)


http://depositfiles....files/xgwn4h6qk
http://depositfiles....files/culmtpz9o
http://depositfiles....files/omlnkk9be

Слушать Радио Душа Кавказа      radioc.gif




Необходимая информация

"Грехи других судить Вы так усердно рветесь, начните со своих и до чужих не доберетесь. " (В.Шекспир)





Количество пользователей, читающих эту тему: 1

0 пользователей, 1 гостей, 0 анонимных