Jump to content

Добро пожаловать на Kavkazportal.com
Пройдите регистрацию,что бы получить полный доступ к всем функция на форуме. После регистрации и входа на форум,вы сможите создавать темы, отвечать на сообщения в существующих разделах, изменять репутацию другим пользователям, получать личные сообщения,размещать новые релизы и темы, управлять вашим профилем и многое другое. Это сообщение будет удалено, как только вы войдете в систему
Войти Регистрация
Новинки Форума
Фотография

Just.Go.With.It-2011-TS-XViD DGM


  • Вы не можете создать новую тему
  • Авторизуйтесь для ответа в теме
В этой теме нет ответов

#1 digiman87

digiman87

    Генерал

  • Пользователи

  • 1 761 сообщений


Отправлено 05 Март 2011 - 11:29

Just.Go.With.It-2011-TS-XViD DGM
Изображение
Just.Go.With.It-2011-TS-XViD
IMDB Rating.......:6.1/10
Video Codec.......:XVID
Release Date......:03/03/11
Audio Codec.......:MP3
Theatre Date......:02/11/11
Audio Bitrate.....:128
Runtime...........:1h 49mn
Language..........:ENGLISH
Resolution........:720 x 320
IMDb URL..........:
http://imdb.com/title/tt1564367/
Изображение
Изображение
Изображение
Изображение
Изображение
Изображение
DETAILS:
Video
ID : 0
Format : MPEG-4 Visual
Format profile : Advanced Simple@L5
Format settings, BVOP : Yes
Format settings, QPel : No
Format settings, GMC : No warppoints
Format settings, Matrix : Default (MPEG)
Muxing mode : Packed bitstream
Codec ID : XVID
Codec ID/Hint : XviD
Duration : 1h 49mn
Bit rate : 1 569 Kbps
Width : 720 pixels
Height : 320 pixels
Display aspect ratio : 2.25:1
Frame rate : 25.000 fps
Color space : YUV
Chroma subsampling : 4:2:0
Bit depth : 8 bits
Scan type : Progressive
Bits/(Pixel*Frame) : 0.272
Stream size : 1.20 GiB (92%)
Writing library : XviD 61
Audio
ID : 1
Format : MPEG Audio
Format version : Version 1
Format profile : Layer 3
Codec ID : 55
Codec ID/Hint : MP3
Duration : 1h 49mn
Bit rate mode : Constant
Bit rate : 128 Kbps
Channel(s) : 2 channels
Sampling rate : 44.1 KHz
Video delay : 4ms
Stream size : 100 MiB (7%)
Alignment : Split accross interleaves
Interleave, duration : 40 ms (1.00 video frame)
Interleave, preload duration : 500 ms
Download Filesonic
http://filesonic.com/file/158666401/J-G...W-I2011TSXVID.part1.rar
http://filesonic.com/file/158666411/J-G...W-I2011TSXVID.part2.rar
http://filesonic.com/file/158666421/J-G...W-I2011TSXVID.part3.rar
http://filesonic.com/file/158666431/J-G...W-I2011TSXVID.part4.rar





Количество пользователей, читающих эту тему: 0

0 пользователей, 0 гостей, 0 анонимных